торрент трекер

Как ограбить банк / How to Rob a Bank

Как ограбить банк / How to Rob a Bank


Как ограбить банк / How to Rob a Bank [2007, США, Триллер, криминал, DVDRip]

Страна: США
Жанр: Триллер, криминал
Год выпуска: 2007
Продолжительность: 01:21:29

Перевод:
Профессиональный (многоголосый закадровый)(лицензия)
Перевод: Авторский одноголосый - Дольский - отдельно
Cубтитры: русские
Оригинальная аудиодорожка: английский
Режиссер: Эндрюс Дженкинс / Andrews Jenkins
В ролях: Ник Сталь, Эрика Кристенсен, Гэвин Россдэйл, Терри Крюс, Лео Фицпатрик, Адриано Арагон, Дэвид Кэррадайн, Рени Коэн, Николо Л. Коул, Бриттани Делано

Описание: Молодой парень Джинкс, уставший от несправедливостей мира, совершенно случайно оказывается в подвале банка, запертый вместе с Джессикой, служащей банка, уставшей от однообразия жизни. Внезапно некая банда совершает налет на банк, и теперь Джинксу приходится лавировать между грабителями и полицией, дабы спасти себя, девушку и выручить немного денег.


AviInfo

File: Kak.ograbit.bank.chopper887.avi
Filesize: 1491.65 Mb ( 1 564 104 704 bytes )
Play length: 01:21:29.520 (122238 frames)
Subtitles: rus (SubRip format)
Video: 720x304 (2.37:1), 25 fps, XviD build 50 ~1647 kbps avg, 0.30 bit/pixel
Audio #1: 48 kHz, AC3 Dolby Digital, 3/2 (L,C,R,l,r) + LFE ch, ~448 kbps
Audio #2: 48 kHz, AC3 Dolby Digital, 3/2 (L,C,R,l,r) + LFE ch, ~448 kbps

File: Kak.ograbit.bank.chopper887.avi
Filesize: 1491.65 Mb ( 1 564 104 704 bytes )
Play length: 01:21:29.520 (122238 frames)
Subtitles: rus (SubRip format)
Video: 720x304 (2.37:1), 25 fps, XviD build 50 ~1647 kbps avg, 0.30 bit/pixel
Audio #1: 48 kHz, AC3 Dolby Digital, 3/2 (L,C,R,l,r) + LFE ch, ~448 kbps
Audio #2: 48 kHz, AC3 Dolby Digital, 3/2 (L,C,R,l,r) + LFE ch, ~448 kbps

MediaInfo

General
Complete name : J:Kak.ograbit.bank.chopper887Kak.ograbit.bank.chopper887.avi
Format : AVI
Format/Info : Audio Video Interleave
File size : 1.46 GiB
Duration : 1h 21mn
Overall bit rate : 2 559 Kbps
Writing application : VirtualDubMod 1.5.10.2 (build 2540/release)
Writing library : VirtualDubMod build 2540/release

Video
ID : 0
Format : MPEG-4 Visual
Format profile : AdvancedSimple@L5
Format settings, BVOP : Yes
Format settings, QPel : No
Format settings, GMC : No warppoints
Format settings, Matrix : Custom
Codec ID : XVID
Codec ID/Hint : XviD
Duration : 1h 21mn
Bit rate : 1 649 Kbps
Width : 720 pixels
Height : 304 pixels
Display aspect ratio : 2.35:1
Frame rate : 25.000 fps
Resolution : 24 bits
Colorimetry : 4:2:0
Scan type : Progressive
Bits/(Pixel*Frame) : 0.301
Stream size : 961 MiB (64%)
Writing library : XviD 1.2.1 (UTC 2008-12-04)

Audio #1
ID : 1
Format : AC-3
Format/Info : Audio Coding 3
Codec ID : 2000
Duration : 1h 21mn
Bit rate mode : Constant
Bit rate : 448 Kbps
Channel(s) : 6 channels
Channel positions : Front: L C R, Surround: L R, LFE
Sampling rate : 48.0 KHz
Stream size : 261 MiB (18%)
Alignment : Split accross interleaves
Interleave, duration : 40 ms (1.00 video frame)
Interleave, preload duration : 500 ms

Audio #2
ID : 2
Format : AC-3
Format/Info : Audio Coding 3
Codec ID : 2000
Duration : 1h 21mn
Bit rate mode : Constant
Bit rate : 448 Kbps
Channel(s) : 6 channels
Channel positions : Front: L C R, Surround: L R, LFE
Sampling rate : 48.0 KHz
Stream size : 261 MiB (18%)
Alignment : Split accross interleaves
Interleave, duration : 40 ms (1.00 video frame)
Interleave, preload duration : 500 ms

Как ограбить банк / How to Rob a Bank
Как ограбить банк / How to Rob a Bank
Как ограбить банк / How to Rob a Bank
Как ограбить банк / How to Rob a Bank
Как ограбить банк / How to Rob a Bank
Как ограбить банк / How to Rob a Bank
Как ограбить банк / How to Rob a Bank
Как ограбить банк / How to Rob a Bank
Как ограбить банк / How to Rob a Bank
Как ограбить банк / How to Rob a Bank
Как ограбить банк / How to Rob a Bank



Качество видео:
DVDRip(Исх.DVD9)
Формат видео: AVI

Видео:
720x304 (2.37:1), 25 fps, XviD build 50 ~1647 kbps avg, 0.30 bit/pixel
Аудио: 48 kHz, AC3 Dolby Digital, 3/2 (L,C,R,l,r) + LFE ch, ~448 kbps RUS
Аудио: 48 kHz, AC3 Dolby Digital, 3/2 (L,C,R,l,r) + LFE ch, ~448 kbps ENG
Аудио:48 kHz, MPEG Layer 3, 2 ch, ~128.00 kbps avg Авторский одноголосый - Дольский - отдельно
Формат субтитров:
softsub (SRT)

Торрент ЗАПРЕЩЕН правообладателем :(

Комментариев: 3
WOLF_89 #3
Фильм скучный , никакой, посмотрел минут 15 и выключил.
Assasins Creed #2
супер

HeaNGel #1
ну и как фильмец??
Информация
Зарегистрируйтесь или войдите на сайт, чтоб оставить комментарий!


Чат